<?xml version="1.0" standalone="no"?>
<!DOCTYPE svg PUBLIC "-//W3C//DTD SVG 1.1//EN" "http://www.w3.org/Graphics/SVG/1.1/DTD/svg11.dtd" >
<svg xmlns="http://www.w3.org/2000/svg">
<metadata>
This is a custom SVG font generated by IcoMoon.
1
</metadata>
<defs>
<font id="ecoico" horiz-adv-x="512" >
<font-face units-per-em="512" ascent="480" descent="-32" />
<missing-glyph horiz-adv-x="512" />
<glyph unicode="&#x21;" d="M 256.00-32.00C 114.618-32.00,0.00,82.618,0.00,224.00S 114.618,480.00, 256.00,480.00s 256.00-114.618, 256.00-256.00S 397.382-32.00, 256.00-32.00z
	 M 256.00,433.455c-115.689,0.00-209.455-93.766-209.455-209.455s 93.766-209.455, 209.455-209.455s 209.455,93.766, 209.455,209.455S 371.689,433.455, 256.00,433.455z M 139.636,200.727l 69.818,0.00 l 46.545,186.182l 46.545-186.182l 69.818,0.00 l-116.364-116.364L 139.636,200.727z" />
<glyph unicode="&#x22;" d="M 279.273,14.545l-46.545,0.00 c-35.956,0.00-69.865,8.378-100.259,22.947L 23.273-32.00l 15.127,151.366
	C 14.173,156.067,0.00,200.006,0.00,247.273C0.00,375.808, 104.192,480.00, 232.727,480.00l 46.545,0.00 c 128.535,0.00, 232.727-104.192, 232.727-232.727C 512.00,118.737, 407.808,14.545, 279.273,14.545z M 279.273,433.455l-46.545,0.00 
	c-102.819,0.00-186.182-83.363-186.182-186.182c0.00-102.819, 83.363-186.182, 186.182-186.182l 46.545,0.00 c 102.819,0.00, 186.182,83.363, 186.182,186.182C 465.455,350.092, 382.092,433.455, 279.273,433.455z M 349.091,224.00c-12.87,0.00-23.273,10.426-23.273,23.273s 10.403,23.273, 23.273,23.273
	s 23.273-10.426, 23.273-23.273S 361.961,224.00, 349.091,224.00z M 256.00,224.00c-12.847,0.00-23.273,10.426-23.273,23.273s 10.426,23.273, 23.273,23.273c 12.87,0.00, 23.273-10.426, 23.273-23.273S 268.87,224.00, 256.00,224.00z M 162.909,224.00
	c-12.847,0.00-23.273,10.426-23.273,23.273s 10.426,23.273, 23.273,23.273s 23.273-10.426, 23.273-23.273S 175.756,224.00, 162.909,224.00z" />
<glyph unicode="&#x23;" d="M 465.455,14.545c0.00,0.00-372.364,0.00-418.909,0.00s-46.545,46.545-46.545,46.545l0.00,162.909 l 116.364,209.455l 279.273,0.00 l 116.364-209.455c0.00,0.00,0.00-116.364,0.00-162.909S 465.455,14.545, 465.455,14.545z M 372.364,386.909L 139.636,386.909 
	l-81.455-162.909l 395.636,0.00 L 372.364,386.909z M 465.455,177.455L 46.545,177.455 l0.00-116.364 l 418.909,0.00 L 465.455,177.455 z M 302.545,107.636L 209.455,107.636 l0.00,23.273 l 93.091,0.00 L 302.545,107.636 z M 360.727,293.818L 372.364,270.545L 139.636,270.545 l 11.636,23.273L 360.727,293.818 z M 174.545,340.364l 162.909,0.00 L 349.091,317.091L 162.909,317.091 L 174.545,340.364z" />
<glyph unicode="&#x24;" d="M 465.455,14.545c0.00,0.00,0.00-46.545-46.545-46.545S 131.165-32.00, 93.091-32.00c-46.545,0.00-46.545,46.545-46.545,46.545s-24.739,178.455, 131.468,222.813
	C 154.601,262.912, 139.636,299.404, 139.636,340.364c0.00,77.103, 52.108,139.636, 116.364,139.636c 64.279,0.00, 116.364-62.534, 116.364-139.636c0.00-40.96-14.964-77.452-38.377-103.005C 490.193,193.001, 465.455,14.545, 465.455,14.545z M 256.00,433.455
	c0.00,0.00-69.818,0.00-69.818-93.091s 69.818-93.091, 69.818-93.091s 69.818,0.00, 69.818,93.091S 256.00,433.455, 256.00,433.455z M 256.00,200.727c-186.182,0.00-162.909-186.182-162.909-186.182l 325.818,0.00 C 418.909,14.545, 442.182,200.727, 256.00,200.727z" />
<glyph unicode="&#x25;" d="M 606.511,14.545c0.00,0.00,0.00-46.545-46.545-46.545s-287.744,0.00-325.818,0.00c-46.545,0.00-46.545,46.545-46.545,46.545s-24.739,178.455, 131.468,222.813
	C 295.657,262.912, 280.692,299.404, 280.692,340.364c0.00,77.103, 52.108,139.636, 116.364,139.636s 116.364-62.534, 116.364-139.636c0.00-40.96-15.011-77.452-38.40-103.005
	C 631.249,193.001, 606.511,14.545, 606.511,14.545z M 397.056,433.455c0.00,0.00-69.818,0.00-69.818-93.091s 69.818-93.091, 69.818-93.091s 69.818,0.00, 69.818,93.091S 397.056,433.455, 397.056,433.455z M 397.056,200.727c-186.182,0.00-162.909-186.182-162.909-186.182l 325.818,0.00 
	C 559.965,14.545, 583.238,200.727, 397.056,200.727z M 207.383,192.512C 200.401,183.738, 194.42,174.266, 188.975,164.422c-13.242,5.329-29.021,8.797-48.64,8.797
	c-123.904,0.00-108.428-126.953-108.428-126.953l 128.815,0.00 C 160.861,35.491, 161.955,24.902, 163.677,14.545c-54.737,0.00-116.806,0.00-131.77,0.00
	C 0.931,14.545, 0.931,46.266, 0.931,46.266s-16.593,124.183, 91.206,152.716c-13.894,17.385-22.691,41.961-22.691,69.446C 69.446,321.001, 101.19,363.636, 140.311,363.636
	s 70.865-42.636, 70.865-95.209c0.00-27.508-8.797-52.084-22.691-69.446C 195.281,197.19, 201.565,195.002, 207.383,192.512z M 140.311,331.892
	c0.00,0.00-41.379,0.00-41.379-63.465c0.00-63.488, 41.379-63.488, 41.379-63.488s 41.379,0.00, 41.379,63.488C 181.713,331.892, 140.311,331.892, 140.311,331.892z" horiz-adv-x="607.9534478305785" />
<glyph unicode="&#x26;" d="M 465.455,14.545c0.00,0.00-372.364,0.00-418.909,0.00s-46.545,46.545-46.545,46.545l0.00,162.909 l 116.364,209.455l 279.273,0.00 l 116.364-209.455c0.00,0.00,0.00-116.364,0.00-162.909S 465.455,14.545, 465.455,14.545z M 372.364,386.909L 139.636,386.909 
	l-81.455-162.909L 162.909,224.00 c0.00,0.00, 46.545,0.00, 46.545-46.545l0.00-23.273 l 93.091,0.00 l0.00,23.273 c0.00,0.00,0.00,46.545, 46.545,46.545l 104.727,0.00 L 372.364,386.909z M 465.455,177.455l-110.755,0.00 C 351.465,171.334, 349.091,164.003, 349.091,154.182c0.00-46.545-46.545-46.545-46.545-46.545L 209.455,107.636 c0.00,0.00-46.545,0.00-46.545,46.545
	c0.00,9.821-2.374,17.152-5.609,23.273L 46.545,177.455 l0.00-116.364 l 418.909,0.00 L 465.455,177.455 z M 151.273,293.818l 209.455,0.00 L 372.364,270.545L 139.636,270.545 L 151.273,293.818z M 174.545,340.364l 162.909,0.00 L 349.091,317.091L 162.909,317.091 L 174.545,340.364z" />
<glyph unicode="&#x27;" d="M 256.00-32.00C 114.618-32.00,0.00,82.618,0.00,224.00S 114.618,480.00, 256.00,480.00s 256.00-114.618, 256.00-256.00S 397.382-32.00, 256.00-32.00z
	 M 256.00,433.455c-115.689,0.00-209.455-93.766-209.455-209.455s 93.766-209.455, 209.455-209.455s 209.455,93.766, 209.455,209.455S 371.689,433.455, 256.00,433.455z M 360.937,100.375l-6.028-3.631l-17.455-10.915l-10.287-7.727
	c-7.633-3.724-15.616-6.679-23.878-9.216l0.00,10.38 l-2.909,23.994c0.00,0.00-1.443,13.824-3.631,17.455s-7.261,8.727-12.358,10.915
	s-8.727,2.188-11.636,5.818s-5.097,10.193-8.727,16.012S 256.00,165.097, 256.00,168.006S 256.00,200.727, 256.00,200.727l 3.631,27.648l 8.006,5.818l 9.449,10.915L 283.648,247.273
	l 22.551-4.375l 16.012,0.00 l 6.54-13.824l 15.267-12.358l 9.449-15.267l 12.358-4.375l 13.824,0.00 l 9.449-11.636l 5.818-12.358l 2.188-8.727l0.00-14.545 l-1.489-8.588
	C 386.351,125.673, 374.668,112.012, 360.937,100.375z M 304.733,351.279l-16.012-8.727l-5.818-16.733L 273.455,317.091l-31.279,0.00 L 227.631,311.273L 226.909,299.636
	L 221.091,290.188L 219.648,279.994l 2.909-8.727l 3.631-8.727c0.00,0.00, 8.727-10.193,0.00-17.455c0.00,0.00-10.915,0.00-13.079,3.631S 194.909,262.54, 192.00,265.449
	s-12.358,5.818-12.358,5.818l-11.636,4.375L 157.091,276.364l 0.721,15.267L 157.091,304.733L 152.716,314.182L 140.358,323.631L 139.636,333.824l 1.489,5.655
	C 170.589,368.78, 211.177,386.909, 256.00,386.909c 25.297,0.00, 48.943-6.26, 70.307-16.547L 325.818,366.545L 304.733,351.279z" />
<glyph unicode="&#x28;" d="M 256.00-32.00c0.00,0.00-162.909,186.182-162.909,349.091s 162.909,162.909, 162.909,162.909s 162.909,0.00, 162.909-162.909S 256.00-32.00, 256.00-32.00z M 370.176,338.735
	c-5.353,28.439-21.201,52.876-43.171,69.935c-1.489,1.187-2.839,2.513-4.399,3.631c-3.444,2.444-7.261,4.375-11.008,6.423
	c-3.142,1.745-6.097,3.654-9.425,5.12c-3.258,1.42-6.772,2.257-10.193,3.375c-3.98,1.303-7.773,2.863-11.985,3.724
	C 272.244,432.547, 264.262,433.455, 256.047,433.455c0.00,0.00-0.023,0.00-0.047,0.00c-0.047,0.00-0.07,0.00-0.116,0.00c-8.099,0.00-15.988-0.861-23.622-2.42
	C 217.018,427.962, 203.38,421.911, 191.418,413.836C 191.232,413.719, 191.046,413.649, 190.883,413.533c-4.957-3.375-9.402-7.261-13.731-11.334
	c-1.303-1.21-2.746-2.234-3.98-3.491c-2.909-3.002-5.353-6.33-7.936-9.588C 163.025,386.304, 160.628,383.628, 158.65,380.602
	C 157.324,378.484, 156.323,376.204, 155.089,374.016C 152.623,369.617, 150.109,365.242, 148.201,360.518C 147.479,358.749, 147.13,356.864, 146.502,355.049
	c-1.769-5.12-3.561-10.24-4.608-15.686C 140.428,332.055, 139.636,324.585, 139.636,317.091c0.00-116.364, 116.364-279.273, 116.364-279.273s 116.364,162.909, 116.364,279.273C 372.364,324.329, 371.619,331.59, 370.176,338.735z M 186.182,317.091
	c0.00,38.563, 31.255,69.818, 69.818,69.818s 69.818-31.255, 69.818-69.818s-31.255-69.818-69.818-69.818S 186.182,278.528, 186.182,317.091z" />
<glyph unicode="&#x29;" d="M 433.455,247.273L 279.273,247.273 L 279.273,401.455 l 44.591-44.591l 162.513,97.513l-97.513-162.537L 433.455,247.273z M 107.892,372.108
	c-62.115-62.115-76.94-153.53-44.684-229.772l-27.02-49.059c-58.508,98.281-45.777,227.188, 38.796,311.761s 213.481,97.303, 311.738,38.796l-49.036-27.02
	C 261.423,449.047, 170.031,434.246, 107.892,372.108z M 78.545,200.727L 232.727,200.727 l0.00-154.182 l-44.591,44.591l-162.513-97.513l 97.513,162.513L 78.545,200.727z M 404.108,75.916
	c 62.394,62.371, 77.033,154.252, 44.241,230.679l 27.066,48.78c 58.95-98.351, 46.336-227.654-38.40-312.39c-84.783-84.759-214.039-97.373-312.39-38.40
	l 48.78,27.066C 249.809-1.14, 341.737,13.498, 404.108,75.916z" />
<glyph unicode="&#x2a;" d="M 395.636-32.00L 116.364-32.00 c-25.693,0.00-46.545,20.852-46.545,46.545L 69.818,433.455 c0.00,25.693, 20.852,46.545, 46.545,46.545l 279.273,0.00 c 25.693,0.00, 46.545-20.852, 46.545-46.545l0.00-418.909 
	C 442.182-11.148, 421.329-32.00, 395.636-32.00z M 395.636,433.455L 116.364,433.455 l0.00-418.909 l 279.273,0.00 L 395.636,433.455 z M 349.091,84.364L 162.909,84.364 L 162.909,386.909 l 186.182,0.00 L 349.091,84.364 z M 279.273,37.818l-46.545,0.00 l0.00,23.273 l 46.545,0.00 L 279.273,37.818 z" />
<glyph unicode="&#x2b;" d="M 465.455,61.091l-160.628,0.00 C 303.523,54.039, 302.545,46.452, 302.545,37.818c0.00-46.545, 46.545-46.545, 46.545-46.545c 12.87,0.00, 23.273-5.236, 23.273-11.636
	c0.00-6.423-10.403-11.636-23.273-11.636L 162.909-32.00 c-12.847,0.00-23.273,5.213-23.273,11.636C 139.636-13.964, 150.063-8.727, 162.909-8.727c0.00,0.00, 46.545,0.00, 46.545,46.545c0.00,8.634-0.977,16.221-2.281,23.273L 46.545,61.091 
	c-25.693,0.00-46.545,20.852-46.545,46.545L0.00,433.455 c0.00,25.693, 20.852,46.545, 46.545,46.545l 418.909,0.00 c 25.693,0.00, 46.545-20.852, 46.545-46.545l0.00-325.818 C 512.00,81.943, 491.148,61.091, 465.455,61.091z M 465.455,433.455L 46.545,433.455 l0.00-279.273 l 418.909,0.00 L 465.455,433.455 z" />
<glyph unicode="&#x2c;" d="M 465.455,37.818L 46.545,37.818 c-25.693,0.00-46.545,20.852-46.545,46.545L0.00,363.636 c0.00,25.693, 20.852,46.545, 46.545,46.545l 418.909,0.00 c 25.693,0.00, 46.545-20.852, 46.545-46.545l0.00-279.273 
	C 512.00,58.671, 491.148,37.818, 465.455,37.818z M 442.182,84.364l-133.399,116.736L 256.00,154.182l-52.783,46.918L 69.818,84.364L 442.182,84.364 z M 46.545,107.636l 130.909,116.364L 46.545,340.364L 46.545,107.636 z M 69.818,363.636l 186.182-162.909l 186.182,162.909L 69.818,363.636 z M 465.455,340.364
	l-130.909-116.364L 465.455,107.636L 465.455,340.364 z" />
<glyph unicode="&#x2d;" d="M 437.015,42.985c-99.98-99.98-262.074-99.98-362.054,0.00
	c-99.956,99.98-99.956,262.074,0.00,362.054c 99.98,99.956, 262.074,99.956, 362.054,0.00C 536.995,305.036, 536.995,142.964, 437.015,42.985z M 386.676,60.416
	l-33.583,33.583c-57.623-43.055-136.564-43.055-194.164,0.00L 125.905,60.998C 202.124,0.093, 310.505-0.582, 386.676,60.416z M 338.269,306.292
	c-45.428,45.452-119.11,45.452-164.561,0.00s-45.452-119.133,0.00-164.561c 45.452-45.452, 119.133-45.452, 164.561,0.00C 383.721,187.159, 383.721,260.841, 338.269,306.292z
	 M 92.393,93.324l 33.606,33.583c-43.078,57.623-43.078,136.564,0.00,194.164L 92.998,354.095C 32.093,277.876, 31.418,169.495, 92.393,93.324z M 125.905,387.002
	l 33.024-33.024c 57.60,43.078, 136.564,43.078, 194.164,0.00l 33.583,33.606C 310.505,448.582, 202.124,447.907, 125.905,387.002z M 419.584,354.676l-33.583-33.606
	c 43.055-57.60, 43.055-136.564,0.00-194.164l 33.001-33.001C 479.907,170.124, 480.582,278.505, 419.584,354.676z" />
<glyph unicode="&#x2e;" d="M 256.00-32.00C 114.618-32.00,0.00,82.618,0.00,224.00S 114.618,480.00, 256.00,480.00s 256.00-114.618, 256.00-256.00S 397.382-32.00, 256.00-32.00z
	 M 256.00,433.455c-115.689,0.00-209.455-93.766-209.455-209.455s 93.766-209.455, 209.455-209.455s 209.455,93.766, 209.455,209.455S 371.689,433.455, 256.00,433.455z M 279.273,180.759C 279.273,168.006, 279.273,154.182, 279.273,154.182l-46.545,0.00 c0.00,0.00,0.00,33.676,0.00,46.545
	s 10.426,23.273, 23.273,23.273l0.00,0.00c 25.693,0.00, 46.545,20.852, 46.545,46.545s-20.852,46.545-46.545,46.545S 209.455,296.239, 209.455,270.545c0.00-8.518, 2.444-16.407, 6.447-23.273L 166.214,247.273 C 164.259,254.743, 162.909,262.47, 162.909,270.545
	c0.00,51.409, 41.681,93.091, 93.091,93.091s 93.091-41.681, 93.091-93.091C 349.091,227.235, 319.372,191.139, 279.273,180.759z M 279.273,84.364l-46.545,0.00 l0.00,46.545 l 46.545,0.00 L 279.273,84.364 z" />
<glyph unicode="&#x2f;" d="M 465.455-32.00L 46.545-32.00 c-25.693,0.00-46.545,20.852-46.545,46.545L0.00,433.455 c0.00,25.693, 20.852,46.545, 46.545,46.545l 418.909,0.00 c 25.693,0.00, 46.545-20.852, 46.545-46.545l0.00-418.909 
	C 512.00-11.148, 491.148-32.00, 465.455-32.00z M 93.091,433.455L 46.545,433.455 l0.00-46.545 l 46.545,0.00 L 93.091,433.455 z M 93.091,363.636L 46.545,363.636 l0.00-46.545 l 46.545,0.00 L 93.091,363.636 z M 93.091,293.818L 46.545,293.818 l0.00-46.545 l 46.545,0.00 L 93.091,293.818 z M 93.091,200.727L 46.545,200.727 l0.00-46.545 l 46.545,0.00 L 93.091,200.727 z M 93.091,130.909L 46.545,130.909 l0.00-46.545 l 46.545,0.00 L 93.091,130.909 z M 93.091,61.091L 46.545,61.091 l0.00-46.545 l 46.545,0.00 L 93.091,61.091 z M 395.636,433.455L 116.364,433.455 
	l0.00-418.909 l 279.273,0.00 L 395.636,433.455 z M 465.455,433.455l-46.545,0.00 l0.00-46.545 l 46.545,0.00 L 465.455,433.455 z M 465.455,363.636l-46.545,0.00 l0.00-46.545 l 46.545,0.00 L 465.455,363.636 z M 465.455,293.818l-46.545,0.00 l0.00-46.545 l 46.545,0.00 L 465.455,293.818 z M 465.455,200.727l-46.545,0.00 l0.00-46.545 l 46.545,0.00 L 465.455,200.727 z M 465.455,130.909l-46.545,0.00 l0.00-46.545 l 46.545,0.00 L 465.455,130.909 z M 465.455,61.091l-46.545,0.00 l0.00-46.545 l 46.545,0.00 L 465.455,61.091 z M 232.727,293.818
	c 23.273,0.00, 93.091-46.545, 93.091-69.818s-69.818-69.818-93.091-69.818s-23.18,23.273-23.18,23.273L 209.548,270.545 C 209.548,270.545, 209.455,293.818, 232.727,293.818z" />
<glyph unicode="&#x30;" d="M 465.455-32.00L 46.545-32.00 c-25.693,0.00-46.545,20.852-46.545,46.545L0.00,433.455 c0.00,25.693, 20.852,46.545, 46.545,46.545l 418.909,0.00 c 25.693,0.00, 46.545-20.852, 46.545-46.545l0.00-418.909 
	C 512.00-11.148, 491.148-32.00, 465.455-32.00z M 465.455,433.455L 46.545,433.455 l0.00-418.909 l 418.909,0.00 L 465.455,433.455 z M 232.727,130.909l 69.818,93.091l 116.364-162.909L 93.091,61.091 l 93.091,116.364L 232.727,130.909z M 186.182,270.545C 160.489,270.545, 139.636,291.398, 139.636,317.091s 20.852,46.545, 46.545,46.545s 46.545-20.852, 46.545-46.545
	S 211.875,270.545, 186.182,270.545z" />
<glyph unicode="&#x31;" d="M 453.469,26.508c-45.452-45.405-119.11-45.405-164.561,0.00l-49.361,49.408
	c-15.034,15.011-24.576,33.187-29.673,52.317c 15.313,1.862, 30.394,5.865, 44.777,12.102c 3.049-11.543, 8.797-22.505, 17.827-31.511l 49.361-49.408
	c 27.276-27.229, 71.471-27.229, 98.746,0.00c 27.252,27.276, 27.252,71.494,0.00,98.769l-49.385,49.361c-21.457,21.457-53.318,25.763-79.244,13.428l 46.336-46.336
	c 9.10-9.10, 9.10-23.808,0.00-32.908s-23.808-9.10-32.908,0.00l-51.014,50.991c-45.172-29.905-106.636-24.995-146.455,14.801L 58.531,256.908
	c-45.428,45.452-45.428,119.133,0.00,164.561s 119.11,45.452, 164.561,0.00l 49.361-49.385c 15.034-15.011, 24.599-33.21, 29.673-52.364
	c-15.313-1.862-30.394-5.865-44.777-12.055c-3.049,11.52-8.797,22.458-17.827,31.511L 190.185,388.561C 162.909,415.814, 118.714,415.814, 91.439,388.561
	C 64.186,361.286, 64.186,317.091, 91.439,289.815l 49.361-49.385c 21.481-21.457, 53.341-25.763, 79.267-13.428L 173.731,273.361c-9.10,9.10-9.10,23.831,0.00,32.931
	s 23.808,9.10, 32.908,0.00l 51.014-51.037c 45.172,29.929, 106.636,25.018, 146.455-14.801l 49.361-49.361C 498.921,145.641, 498.921,71.959, 453.469,26.508z" />
<glyph unicode="&#x32;" d="M 512.00,14.545c0.00-46.545-46.545-46.545-46.545-46.545l-133.167,133.143C 297.775,76.055, 255.418,61.091, 209.455,61.091
	c-115.689,0.00-209.455,93.766-209.455,209.455s 93.766,209.455, 209.455,209.455s 209.455-93.766, 209.455-209.455c0.00-45.964-14.988-88.32-40.076-122.857L 512.00,14.545z M 209.455,433.455C 119.482,433.455, 46.545,360.518, 46.545,270.545s 72.937-162.909, 162.909-162.909
	s 162.909,72.937, 162.909,162.909S 299.427,433.455, 209.455,433.455z" />
<glyph unicode="&#x33;" d="M 512.00,270.545l0.00-93.091 l-57.088-19.014c-3.258-9.868-7.447-19.223-12.055-28.393l 27.066-54.156l-65.839-65.815
	l-54.202,27.113c-9.123-4.585-18.479-8.774-28.30-12.009L 302.545-32.00L 209.455-32.00 l-19.06,57.181c-9.821,3.235-19.177,7.401-28.276,12.009l-54.225-27.113
	l-65.839,65.815l 27.089,54.156c-4.608,9.169-8.797,18.525-12.055,28.393L0.00,177.455L0.00,270.545 l 57.088,19.014c 3.258,9.868, 7.447,19.223, 12.055,28.393L 42.077,372.108
	l 65.839,65.815l 54.225-27.113c 9.123,4.585, 18.455,8.774, 28.276,12.009L 209.455,480.00l 93.091,0.00 l 19.037-57.181c 9.821-3.235, 19.177-7.401, 28.30-12.009l 54.202,27.113
	l 65.839-65.815l-27.066-54.156c 4.585-9.169, 8.797-18.525, 12.055-28.393L 512.00,270.545z M 416.721,247.808c-4.026,27.066-14.778,51.875-30.348,72.797
	l 25.926,43.264L 395.869,380.346L 352.582,354.374c-20.945,15.476-45.684,26.135-72.727,30.138L 267.636,433.455l-23.273,0.00 L 232.122,384.489C 205.103,380.509, 180.364,369.85, 159.418,354.374
	L 116.131,380.346L 99.677,363.892l 25.949-43.264C 110.033,299.683, 99.305,274.897, 95.279,247.808L 46.545,235.636l0.00-23.273 l 48.733-12.172
	c 4.003-27.066, 14.755-51.875, 30.324-72.797l-25.949-43.264l 16.454-16.454l 43.287,25.972c 20.922-15.476, 45.684-26.135, 72.704-30.138L 244.364,14.545l 23.273,0.00 
	l 12.218,48.966c 27.043,4.003, 51.782,14.662, 72.727,30.138l 43.264-25.972l 16.454,16.454l-25.926,43.264c 15.569,20.922, 26.321,45.731, 30.348,72.797
	L 465.455,212.364l0.00,23.273 L 416.721,247.808z M 256.00,154.182c-38.563,0.00-69.818,31.255-69.818,69.818s 31.255,69.818, 69.818,69.818c 38.54,0.00, 69.818-31.255, 69.818-69.818S 294.54,154.182, 256.00,154.182z M 256.00,247.273
	c-12.847,0.00-23.273-10.403-23.273-23.273s 10.426-23.273, 23.273-23.273c 12.87,0.00, 23.273,10.403, 23.273,23.273S 268.87,247.273, 256.00,247.273z" />
<glyph unicode="&#x34;" d="M 465.455,386.909l-23.273,0.00 l0.00-372.364 c0.00-25.693-20.852-46.545-46.545-46.545L 116.364-32.00 c-25.693,0.00-46.545,20.852-46.545,46.545L 69.818,386.909 L 46.545,386.909 C 33.699,386.909, 23.273,397.312, 23.273,410.182
	s 10.426,23.273, 23.273,23.273l 139.636,0.00 c0.00,25.693, 20.852,46.545, 46.545,46.545l 46.545,0.00 c 25.693,0.00, 46.545-20.852, 46.545-46.545l 139.636,0.00 c 12.87,0.00, 23.273-10.403, 23.273-23.273S 478.324,386.909, 465.455,386.909z M 395.636,386.909L 116.364,386.909 l0.00-372.364 l 279.273,0.00 L 395.636,386.909 z M 209.455,340.364
	c 12.847,0.00, 23.273-10.403, 23.273-23.273l0.00-232.727 c0.00-12.87-10.426-23.273-23.273-23.273s-23.273,10.403-23.273,23.273L 186.182,317.091 C 186.182,329.961, 196.608,340.364, 209.455,340.364z M 302.545,340.364c 12.87,0.00, 23.273-10.403, 23.273-23.273l0.00-232.727 
	c0.00-12.87-10.403-23.273-23.273-23.273s-23.273,10.403-23.273,23.273L 279.273,317.091 C 279.273,329.961, 289.676,340.364, 302.545,340.364z" />
<glyph unicode="&#x35;" d="M 447.674,381.417L 413.091,416.00L 453.818,456.727c0.00,0.00, 34.909,0.721, 34.909-34.188L 447.674,381.417z M 69.818,363.636l0.00-325.818 
	l 325.818,0.00 L 395.636,258.909 l 46.545,46.545L 442.182,37.818 c0.00-25.693-20.852-46.545-46.545-46.545L 69.818-8.727 c-25.693,0.00-46.545,20.852-46.545,46.545L 23.273,363.636 c0.00,25.693, 20.852,46.545, 46.545,46.545l 267.636,0.00 l-46.545-46.545L 69.818,363.636 z M 186.182,154.182l0.00,34.909 l 17.455,17.455l 34.886-34.886
	L 221.091,154.182L 186.182,154.182 z M 424.448,358.097l-174.313-174.778L 215.273,218.182l 174.545,174.545L 424.448,358.097z" />
<glyph unicode="&#x36;" d="M 256.00-32.00C 114.618-32.00,0.00,82.618,0.00,224.00S 114.618,480.00, 256.00,480.00s 256.00-114.618, 256.00-256.00S 397.382-32.00, 256.00-32.00z
	 M 256.00,433.455c-115.689,0.00-209.455-93.766-209.455-209.455s 93.766-209.455, 209.455-209.455s 209.455,93.766, 209.455,209.455S 371.689,433.455, 256.00,433.455z M 232.727,84.364c-23.273,0.00-23.273,23.273-23.273,23.273l 23.273,116.364c0.00,0.00,0.00,23.273-23.273,23.273c0.00,0.00-23.273,0.00-23.273,23.273l 69.818,0.00 
	c0.00,0.00, 23.273,0.00, 23.273-23.273s-23.273-93.091-23.273-116.364s 23.273-23.273, 23.273-23.273l 23.273,0.00 C 302.545,107.636, 302.545,84.364, 232.727,84.364z M 279.273,317.091c-12.87,0.00-23.273,10.403-23.273,23.273s 10.403,23.273, 23.273,23.273s 23.273-10.403, 23.273-23.273S 292.143,317.091, 279.273,317.091z" />
<glyph unicode="&#x37;" d="M 418.909-32.00L 93.091-32.00 c-25.693,0.00-46.545,20.852-46.545,46.545L 46.545,433.455 c0.00,25.693, 20.852,46.545, 46.545,46.545l 325.818,0.00 c 25.693,0.00, 46.545-20.852, 46.545-46.545l0.00-418.909 
	C 465.455-11.148, 444.602-32.00, 418.909-32.00z M 418.909,433.455L 93.091,433.455 l0.00-418.909 l 325.818,0.00 L 418.909,433.455 z M 209.455,340.364L 139.636,340.364 L 139.636,386.909 l 69.818,0.00 L 209.455,340.364 z M 209.455,247.273L 139.636,247.273 L 139.636,293.818 l 69.818,0.00 L 209.455,247.273 z M 372.364,154.182L 139.636,154.182 l0.00,46.545 l 232.727,0.00 L 372.364,154.182 z M 372.364,61.091L 139.636,61.091 l0.00,46.545 l 232.727,0.00 L 372.364,61.091 z M 256.00,386.909l 116.364,0.00 l0.00-139.636 l-116.364,0.00 L 256.00,386.909 
	z" />
<glyph unicode="&#x38;" d="M 256.00-32.00C 114.618-32.00,0.00,82.618,0.00,224.00S 114.618,480.00, 256.00,480.00s 256.00-114.618, 256.00-256.00S 397.382-32.00, 256.00-32.00z
	 M 256.00,433.455c-115.689,0.00-209.455-93.766-209.455-209.455s 93.766-209.455, 209.455-209.455s 209.455,93.766, 209.455,209.455S 371.689,433.455, 256.00,433.455z M 349.091,200.727l-52.992,0.00 c-8.076-13.871-22.90-23.273-40.099-23.273
	c-25.693,0.00-46.545,20.852-46.545,46.545c0.00,17.175, 9.402,32.023, 23.273,40.099L 232.727,363.636 c0.00,12.87, 10.403,23.273, 23.273,23.273s 23.273-10.403, 23.273-23.273l0.00-99.537 c 6.982-4.073, 12.823-9.868, 16.919-16.826L 349.091,247.273 
	c 12.87,0.00, 23.273-10.403, 23.273-23.273S 361.961,200.727, 349.091,200.727z" />
<glyph unicode="&#x39;" d="M 465.455-32.00L 46.545-32.00 c-25.693,0.00-46.545,20.852-46.545,46.545L0.00,433.455 c0.00,25.693, 20.852,46.545, 46.545,46.545l 418.909,0.00 c 25.693,0.00, 46.545-20.852, 46.545-46.545l0.00-418.909 
	C 512.00-11.148, 491.148-32.00, 465.455-32.00z M 465.455,433.455L 46.545,433.455 l0.00-418.909 l 418.909,0.00 L 465.455,433.455 z M 249.111,301.708c 11.334-9.053, 18.735-23.552, 18.735-40.797c0.00-17.524-5.679-32.023-16.454-41.891
	c-13.894-13.405-35.747-19.712-60.416-19.712c-6.516,0.00-12.497,0.279-17.012,1.094l0.00-69.539 L 139.334,130.863 L 139.334,312.902 c 12.474,2.211, 29.789,3.84, 53.318,3.84
	C 218.205,316.742, 236.94,311.552, 249.111,301.708z M 173.964,226.956c 4.259-1.094, 9.937-1.373, 17.012-1.373c 26.089,0.00, 41.984,12.311, 41.984,33.955
	c0.00,20.527-14.755,31.488-38.865,31.488c-9.635,0.00-16.454-0.815-20.131-1.629L 173.964,226.956 z M 330.333,152.227c 15.313,0.00, 22.109,6.028, 22.109,14.778
	c0.00,9.053-5.655,13.708-22.691,19.433c-26.95,9.053-38.307,23.273-38.028,38.889c0.00,23.552, 20.131,41.891, 52.201,41.891c 15.313,0.00, 28.625-3.84, 36.585-7.936
	l-6.819-23.808c-5.958,3.281-17.012,7.657-29.207,7.657c-12.474,0.00-19.293-5.748-19.293-13.987c0.00-8.471, 6.516-12.591, 24.111-18.595
	c 24.948-8.774, 36.585-21.085, 36.864-40.797c0.00-24.087-19.572-41.891-56.157-41.891c-16.733,0.00-31.767,4.096-41.984,9.565l 6.796,24.367
	C 302.825,157.161, 317.836,152.227, 330.333,152.227z" />
<glyph unicode="&#x3a;" d="M 465.455-32.00L 46.545-32.00 c-25.693,0.00-46.545,20.852-46.545,46.545L0.00,433.455 c0.00,25.693, 20.852,46.545, 46.545,46.545l 418.909,0.00 c 25.693,0.00, 46.545-20.852, 46.545-46.545l0.00-418.909 
	C 512.00-11.148, 491.148-32.00, 465.455-32.00z M 465.455,433.455L 46.545,433.455 l0.00-418.909 l 418.909,0.00 L 465.455,433.455 z M 246.993,316.323l 61.114-185.879l-36.841,0.00 l-17.012,52.689L 194.513,183.133 l-16.175-52.689L 142.895,130.444 L 203.171,316.323
	L 246.993,316.323 z M 248.39,208.756l-14.801,45.801C 229.981,265.844, 226.909,278.551, 224.116,289.303L 223.535,289.303 c-2.793-10.752-5.562-23.738-8.937-34.746l-14.499-45.801
	L 248.39,208.756 z M 350.371,320.721c 11.729,0.00, 18.967-8.006, 19.247-18.479c0.00-10.193-7.517-18.199-19.526-18.199c-11.45,0.00-18.967,8.006-18.967,18.199
	C 331.124,312.716, 338.897,320.721, 350.371,320.721z M 367.663,130.42l-34.583,0.00 L 333.079,264.751 l 34.583,0.00 L 367.663,130.42 z" />
<glyph unicode="&#x3b;" d="M 393.961,152.064c0.00,0.00, 48.198-159.046, 24.925-182.319s-161.955,78.057-161.955,78.057
	s-140.591-101.329-163.863-78.057s 26.833,182.319, 26.833,182.319s-143.197,120.227-119.924,143.50s 172.265,25.274, 172.265,25.274s 62.371,160.884, 84.689,160.884
	c 22.319,0.023, 84.689-160.884, 84.689-160.884s 147.084-2.001, 170.356-25.274S 393.961,152.064, 393.961,152.064z M 319.977,272.291c-23.273,23.273-53.807,139.636-64.00,139.636
	s-40.727-116.364-64.00-139.636c0.00,0.00-122.182,0.00-122.182-11.636s 93.091-58.182, 93.091-93.091s-34.909-128.00-23.273-139.636s 82.176,69.818, 116.364,69.818s 104.727-81.455, 116.364-69.818s-23.273,104.727-23.273,139.636s 93.091,81.455, 93.091,93.091
	S 319.977,272.291, 319.977,272.291z" />
<glyph unicode="&#x3c;" d="M 256.00-32.00C 209.455-32.00,0.00,177.455,0.00,340.364c0.00,77.103, 62.534,139.636, 139.636,139.636c 48.64,0.00, 91.369-24.902, 116.364-62.604
	C 280.995,455.098, 323.724,480.00, 372.364,480.00c 77.103,0.00, 139.636-62.534, 139.636-139.636C 512.00,177.455, 302.545-32.00, 256.00-32.00z M 372.364,433.455L 372.364,433.455L 372.364,433.455c0.00,0.00-4.143,0.00-10.822-1.094
	c-16.57-1.955-31.721-8.029-44.451-17.478C 287.046,395.217, 256.00,354.723, 256.00,270.545c0.00,84.177-31.046,124.672-61.091,144.337
	c-12.73,9.449-27.904,15.523-44.451,17.478C 143.779,433.455, 139.636,433.455, 139.636,433.455l0.00,0.00l0.00,0.00C 88.227,433.455, 46.545,391.773, 46.545,340.364c0.00-116.364, 162.909-314.182, 209.455-314.182S 465.455,224.00, 465.455,340.364
	C 465.455,391.773, 423.773,433.455, 372.364,433.455z" />
<glyph unicode="&#x3d;" d="M 418.909,480.00L 93.091,480.00 C 67.398,480.00, 46.545,459.148, 46.545,433.455l0.00-418.909 c0.00-25.693, 20.852-46.545, 46.545-46.545l 325.818,0.00 c 25.693,0.00, 46.545,20.852, 46.545,46.545L 465.455,433.455 
	C 465.455,459.148, 444.602,480.00, 418.909,480.00z M 139.636,14.545L 93.091,14.545 L 93.091,433.455 l 46.545,0.00 L 139.636,14.545 z M 418.909,14.545L 162.909,14.545 L 162.909,433.455 l 139.636,0.00 l0.00-93.091 l 34.909,34.909L 372.364,340.364L 372.364,433.455 l 46.545,0.00 L 418.909,14.545 z" />
<glyph unicode="&#x3e;" d="M 354.909,480.00L 93.091,480.00 C 67.398,480.00, 46.545,459.148, 46.545,433.455l0.00-418.909 c0.00-25.693, 20.852-46.545, 46.545-46.545l 325.818,0.00 c 25.693,0.00, 46.545,20.852, 46.545,46.545
	L 465.455,369.455 L 354.909,480.00z M 349.091,422.447L 407.366,363.636L 349.091,363.636 L 349.091,422.447 z M 418.909,14.545L 93.091,14.545 L 93.091,433.455 l 209.455,0.00 l0.00-116.364 l 116.364,0.00 L 418.909,14.545 z" />
<glyph unicode="&#x3f;" d="M 465.455-32.00L 46.545-32.00 c-25.693,0.00-46.545,20.852-46.545,46.545L0.00,433.455 c0.00,25.693, 20.852,46.545, 46.545,46.545l 418.909,0.00 c 25.693,0.00, 46.545-20.852, 46.545-46.545l0.00-418.909 
	C 512.00-11.148, 491.148-32.00, 465.455-32.00z M 465.455,433.455L 46.545,433.455 l0.00-418.909 l 418.909,0.00 L 465.455,433.455 z M 418.909,61.091l-46.545,0.00 c0.00,162.909-116.364,279.273-279.273,279.273L 93.091,386.909 C 279.273,386.909, 418.909,247.273, 418.909,61.091z M 279.273,61.091l-46.545,0.00 c0.00,69.818-69.818,139.636-139.636,139.636l0.00,46.545 
	C 186.182,247.273, 279.273,154.182, 279.273,61.091z M 116.364,107.636c 12.847,0.00, 23.273-10.403, 23.273-23.273s-10.426-23.273-23.273-23.273s-23.273,10.403-23.273,23.273S 103.517,107.636, 116.364,107.636z" />
<glyph unicode="&#x40;" d="M 442.182-32.00L 69.818-32.00 c-25.693,0.00-46.545,20.852-46.545,46.545L 23.273,247.273 c0.00,25.693, 20.852,46.545, 46.545,46.545l 46.545,0.00 L 116.364,340.364 c0.00,77.103, 62.534,139.636, 139.636,139.636
	s 139.636-62.534, 139.636-139.636l0.00-46.545 l 46.545,0.00 c 25.693,0.00, 46.545-20.852, 46.545-46.545l0.00-232.727 C 488.727-11.148, 467.875-32.00, 442.182-32.00z M 349.091,340.364c0.00,51.409-41.681,93.091-93.091,93.091S 162.909,391.773, 162.909,340.364l0.00-46.545 l 186.182,0.00 L 349.091,340.364 z M 442.182,247.273L 69.818,247.273 l0.00-232.727 l 372.364,0.00 
	L 442.182,247.273 z M 256.00,200.727c 25.693,0.00, 46.545-20.852, 46.545-46.545s-20.852-46.545-46.545-46.545s-46.545,20.852-46.545,46.545S 230.307,200.727, 256.00,200.727z M 256.00,107.636c 12.87,0.00, 23.273-10.403, 23.273-23.273s-10.403-23.273-23.273-23.273
	c-12.847,0.00-23.273,10.403-23.273,23.273S 243.153,107.636, 256.00,107.636z" />
<glyph unicode="&#x41;" d="M 232.727,84.364A23.273,23.273 540.00 1,0 279.273,84.36399999999998A23.273,23.273 540.00 1,0 232.727,84.36399999999998zM 209.455,154.182A46.545,46.545 540.00 1,0 302.545,154.18200000000002A46.545,46.545 540.00 1,0 209.455,154.18200000000002zM 442.182,293.818l-46.545,0.00 L 395.636,340.364 c0.00,77.103-62.534,139.636-139.636,139.636C 186.857,480.00, 129.839,429.615, 118.714,363.636L 162.909,363.636l 3.305,0.00 C 176.57,403.712, 212.666,433.455, 256.00,433.455c 51.409,0.00, 93.091-41.681, 93.091-93.091l0.00-46.545 L 69.818,293.818 
	c-25.693,0.00-46.545-20.852-46.545-46.545l0.00-232.727 c0.00-25.693, 20.852-46.545, 46.545-46.545l 372.364,0.00 c 25.693,0.00, 46.545,20.852, 46.545,46.545L 488.727,247.273 C 488.727,272.966, 467.875,293.818, 442.182,293.818z M 442.182,14.545L 69.818,14.545 L 69.818,247.273 l 372.364,0.00 L 442.182,14.545 z" />
<glyph unicode="&#x42;" d="M 488.727,235.636l-162.909,69.818l 65.117,46.522C 357.004,387.724, 309.178,410.182, 256.00,410.182
	C 165.818,410.182, 90.671,346.065, 73.519,260.957L 30.068,278.947C 54.784,380.905, 146.432,456.727, 256.00,456.727c 68.817,0.00, 130.42-30.068, 173.056-77.545L 488.727,421.818L 488.727,235.636 z
	 M 121.065,96.023C 154.973,60.276, 202.822,37.818, 256.00,37.818c 90.531,0.00, 165.888,64.605, 182.644,150.225l 43.404-18.572C 457.472,67.305, 365.731-8.727, 256.00-8.727
	c-68.817,0.00-130.444,30.068-173.056,77.545L 23.273,26.182l0.00,186.182 l 162.909-69.818L 121.065,96.023z" />
<glyph unicode="&#x43;" d="M 465.455,200.727L 186.182,200.727 c-12.87,0.00-23.273,10.403-23.273,23.273s 10.403,23.273, 23.273,23.273l 279.273,0.00 c 12.87,0.00, 23.273-10.403, 23.273-23.273
	S 478.324,200.727, 465.455,200.727z M 465.455,363.636L 186.182,363.636 C 173.312,363.636, 162.909,374.039, 162.909,386.909s 10.403,23.273, 23.273,23.273l 279.273,0.00 c 12.87,0.00, 23.273-10.403, 23.273-23.273S 478.324,363.636, 465.455,363.636z M 69.818,14.545c-25.693,0.00-46.545,20.852-46.545,46.545
	s 20.852,46.545, 46.545,46.545s 46.545-20.852, 46.545-46.545S 95.511,14.545, 69.818,14.545z M 69.818,177.455c-25.693,0.00-46.545,20.852-46.545,46.545s 20.852,46.545, 46.545,46.545s 46.545-20.852, 46.545-46.545S 95.511,177.455, 69.818,177.455z M 69.818,340.364
	C 44.125,340.364, 23.273,361.216, 23.273,386.909s 20.852,46.545, 46.545,46.545s 46.545-20.852, 46.545-46.545S 95.511,340.364, 69.818,340.364z M 186.182,84.364l 279.273,0.00 c 12.87,0.00, 23.273-10.403, 23.273-23.273s-10.403-23.273-23.273-23.273L 186.182,37.818 c-12.87,0.00-23.273,10.403-23.273,23.273
	S 173.312,84.364, 186.182,84.364z" />
<glyph unicode="&#x44;" d="M 512.00,340.364l-162.909-116.364L 349.091,293.818 C 125.812,293.818, 97.303,134.563, 93.626,93.836C 99.654,363.148, 349.091,363.636, 349.091,363.636L 349.091,456.727 L 512.00,340.364z
	 M 93.626,93.836C 93.58,90.554, 93.091,87.738, 93.091,84.364C 93.091,84.364, 93.114,87.855, 93.626,93.836z M 46.545,363.636l0.00-325.818 l 372.364,0.00 l0.00,166.237 l 46.545,33.257L 465.455,37.818 c0.00-25.693-20.852-46.545-46.545-46.545L 46.545-8.727 
	c-25.693,0.00-46.545,20.852-46.545,46.545L0.00,363.636 c0.00,25.693, 20.852,46.545, 46.545,46.545l 302.545,0.00 c-0.023,0.00-91.206-0.303-173.452-46.545L 46.545,363.636 z" />
<glyph unicode="&#x45;" d="M 465.455-32.00c0.00,0.00-372.364,0.00-418.909,0.00s-46.545,46.545-46.545,46.545L0.00,270.545 l 116.364,209.455l 279.273,0.00 l 116.364-209.455c0.00,0.00,0.00-209.455,0.00-256.00S 465.455-32.00, 465.455-32.00z M 162.909,107.636
	c0.00,0.00,0.00-23.273, 23.273-23.273s 139.636,0.00, 139.636,0.00s 23.273,0.00, 23.273,23.273s0.00,23.273,0.00,23.273s0.00,23.273-23.273,23.273c-69.818,0.00-139.636,0.00-139.636,0.00s-23.273,0.00-23.273-23.273S 162.909,107.636, 162.909,107.636z M 372.364,433.455L 139.636,433.455 L 58.182,270.545l 395.636,0.00 L 372.364,433.455z M 360.727,340.364L 372.364,317.091L 139.636,317.091 l 11.636,23.273L 360.727,340.364 z
	 M 174.545,386.909l 162.909,0.00 L 349.091,363.636L 162.909,363.636 L 174.545,386.909z M 302.545,107.636L 209.455,107.636 l0.00,23.273 l 93.091,0.00 L 302.545,107.636 z" />
<glyph unicode="&#x46;" d="M 139.636,247.273A46.545,46.545 540.00 1,0 232.727,247.273A46.545,46.545 540.00 1,0 139.636,247.273zM 349.091,224.00L 232.727,107.636L 186.182,154.182L 93.091,61.091L 512.00,61.091 	zM 558.545,386.909L 46.545,386.909 C 20.852,386.909,0.00,366.057,0.00,340.364l0.00-325.818 c0.00-25.693, 20.852-46.545, 46.545-46.545l 512.00,0.00 c 25.693,0.00, 46.545,20.852, 46.545,46.545L 605.091,340.364 C 605.091,366.057, 584.239,386.909, 558.545,386.909z M 558.545,14.545L 46.545,14.545 L 46.545,340.364 l 512.00,0.00 L 558.545,14.545 zM 651.636,480.00L 139.636,480.00 C 113.943,480.00, 93.091,459.148, 93.091,433.455l 558.545,0.00 l0.00-372.364 c 25.693,0.00, 46.545,20.852, 46.545,46.545L 698.182,433.455 C 698.182,459.148, 677.329,480.00, 651.636,480.00z" horiz-adv-x="698.1818181818182" />
<glyph unicode="&#x47;" d="M 465.455,61.091l0.00,46.545 L 465.455,433.455 L 139.636,433.455 L 93.091,433.455 c0.00,25.693, 20.852,46.545, 46.545,46.545l 325.818,0.00 c 25.693,0.00, 46.545-20.852, 46.545-46.545l0.00-325.818 
	C 512.00,81.943, 491.148,61.091, 465.455,61.091z M 418.909,340.364l0.00-325.818 c0.00-25.693-20.852-46.545-46.545-46.545L 46.545-32.00 c-25.693,0.00-46.545,20.852-46.545,46.545L0.00,340.364 c0.00,25.693, 20.852,46.545, 46.545,46.545l 325.818,0.00 C 398.057,386.909, 418.909,366.057, 418.909,340.364
	z M 46.545,14.545l 325.818,0.00 L 372.364,340.364 L 46.545,340.364 L 46.545,14.545 z M 162.909,154.182l 34.909-46.545l 58.182,69.818l 69.818-116.364L 93.091,61.091 L 162.909,154.182z M 151.273,200.727C 131.98,200.727, 116.364,216.343, 116.364,235.636S 131.98,270.545, 151.273,270.545S 186.182,254.929, 186.182,235.636S 170.566,200.727, 151.273,200.727z
	" />
<glyph unicode="&#x48;" d="M 465.455-32.00L 46.545-32.00 c-25.693,0.00-46.545,20.852-46.545,46.545L0.00,433.455 c0.00,25.693, 20.852,46.545, 46.545,46.545l 349.091,0.00 l-46.545-46.545L 46.545,433.455 l0.00-418.909 l 418.909,0.00 L 465.455,317.091 l 46.545,46.545l0.00-349.091 
	C 512.00-11.148, 491.148-32.00, 465.455-32.00z M 436.364,439.273L 477.091,480.00c0.00,0.00, 34.909,0.721, 34.909-34.188l-41.053-41.146L 436.364,439.273z M 209.455,177.455l0.00,34.909 l 17.455,17.455
	l 34.886-34.886L 244.364,177.455L 209.455,177.455 z M 447.721,381.37l-174.313-174.778L 238.545,241.455l 174.545,174.545L 447.721,381.37z" /></font>
</defs>
</svg>
